Goodbye Christopher Robin 2017 720p BluRay x264 Dual Audio [Hindi...

  • Category Movies
  • Type Dubs/Dual Audio
  • Language Hindi
  • Total size 950.3 MB
  • Uploaded By moviezworldz
  • Downloads 944
  • Last checked 5 days ago
  • Date uploaded 1 week ago
  • Seeders 11
  • Leechers 12

Goodbye Christopher Robin

FamilyHistory

The behind the scenes story of the life of A.A. Milne and the creation of the Winnie the Pooh stories inspired by his son Christopher Robin.

Infohash : 45DDECBAAB8E58CF0A8FEDB1FD9A87B4854A981A




General
Format : Matroska
Format version : Version 4 / Version 2
File size : 950 MiB
Duration : 1 h 47 min
Overall bit rate : 1 242 kb/s

Video
ID : 1
Format : AVC
Format/Info : Advanced Video Codec
Format profile : [email protected]
Format settings : CABAC / 4 Ref Frames
Format settings, CABAC : Yes
Format settings, ReFrames : 4 frames
Codec ID : V_MPEG4/ISO/AVC
Duration : 1 h 47 min
Bit rate : 900 kb/s
Width : 1 280 pixels
Height : 682 pixels
Display aspect ratio : 1.85:1
Original display aspect rat : 1.85:1
Frame rate mode : Constant
Frame rate : 23.976 FPS
Color space : YUV
Chroma subsampling : 4:2:0
Bit depth : 8 bits
Scan type : Progressive
Bits/(Pixel*Frame) : 0.043
Stream size : 689 MiB (72%)
Writing library : x264 core 152
Default : Yes
Forced : No

Audio #1
ID : 4
Format : AC-3
Format/Info : Audio Coding 3
Codec ID : A_AC3
Duration : 1 h 47 min
Bit rate mode : Constant
Bit rate : 256 kb/s
Channel(s) : 6 channels
Channel positions : Front: L C R, Side: L R, LFE
Sampling rate : 48.0 kHz
Frame rate : 31.250 FPS (1536 SPF)
Bit depth : 16 bits
Compression mode : Lossy
Stream size : 196 MiB (21%)
Language : Hindi
Service kind : Complete Main
Default : Yes
Forced : No

Audio #2
ID : 5
Format : AAC
Format/Info : Advanced Audio Codec
Format profile : LC
Codec ID : A_AAC-2
Duration : 1 h 47 min
Bit rate : 64.7 kb/s
Channel(s) : 2 channels
Channel positions : Front: L R
Sampling rate : 44.1 kHz
Frame rate : 43.066 FPS (1024 SPF)
Compression mode : Lossy
Stream size : 49.6 MiB (5%)
Language : English
Default : No
Forced : No

Text #1
ID : 2
Format : VobSub
Duration : 1 h 40 min
Bit rate : 7 023 b/s
Count of elements : 1786
Stream size : 5.04 MiB (1%)
Language : English
Default : Yes
Forced : No

Text #2
ID : 3
Format : VobSub
Duration : 1 h 41 min
Bit rate : 12.7 kb/s
Count of elements : 2080
Stream size : 9.16 MiB (1%)
Language : English
Default : No
Forced : No












Files:

Goodbye Christopher Robin 2017 720p BluRay x264 Dual Audio [Hindi DD 5.1 - English 2.0] ESub
  • Goodbye Christopher Robin 2017 720p BluRay x264 Dual Audio [Hindi DD 5.1 - English 2.0] ESub.mkv (950.3 MB)

There are currently no comments. Feel free to leave one :)

Code:

  • http://ipv4.tracker.harry.lu/announce
  • http://ipv4.tracker.harry.lu:80/announce
  • http://open.kickasstracker.com/announce
  • http://open.kickasstracker.com:443/announce
  • udp://tracker.coppersurfer.tk:6969/announce
  • udp://tracker.coppersurfer.tk:80/announce
  • udp://tracker.leechers-paradise.org:6969/announce
  • udp://tracker.openbittorrent.com:80/announce
  • udp://tracker.zer0day.to:1337/announce
  • http://82.209.230.66/announce
  • http://163.172.180.68/announce
  • udp://eddie4.nl:6969/announce
  • udp://explodie.org:6969/announce
  • udp://9.rarbg.to:2720/announce
  • udp://tracker.coppersurfer.tk:6969