Acts of Violence 2017 1080p WEBRip 6CH AAC x264 - EiE

  • Category Movies
  • Type h.264/x264
  • Language English
  • Total size 1.5 GB
  • Uploaded By samcode4u
  • Downloads 1005
  • Last checked 6 days ago
  • Date uploaded 1 week ago
  • Seeders 71
  • Leechers 12

Infohash : 6224B2C27EBBCB82F1DC60BD4A385AD8FCAD5631






Click on the link to see Screenshot:

http://lensdump.com/i/Y4vzP

http://lensdump.com/i/Y4nCZ

http://lensdump.com/i/Y4Lwm

http://lensdump.com/i/Y4Y1i




Code:


Video
ID : 1
Format : AVC
Format/Info : Advanced Video Codec
Format settings : CABAC / 4 Ref Frames
Format settings, CABAC : Yes
Format settings, RefFrames : 4 frames
Codec ID : avc1
Codec ID/Info : Advanced Video Coding
Duration : 1 h 26 min
Bit rate : 2 233 kb/s
Maximum bit rate : 9 898 kb/s
Width : 1 904 pixels
Height : 792 pixels
Display aspect ratio : 2.40:1
Frame rate mode : Constant
Frame rate : 23.976 FPS
Color space : YUV
Chroma subsampling : 4:2:0
Bit depth : 8 bits
Scan type : Progressive
Bits/(Pixel*Frame) : 0.062
Stream size : 1.35 GiB (90%)

Audio
ID : 2
Format : AAC
Format/Info : Advanced Audio Codec
Format profile : LC
Duration : 1 h 26 min
Bit rate mode : Variable
Bit rate : 238 kb/s
Maximum bit rate : 304 kb/s
Channel(s) : 6 channels
Channel positions : Front: L C R, Side: L R, LFE
Sampling rate : 48.0 kHz
Frame rate : 46.875 FPS
Compression mode : Lossy
Stream size : 148 MiB (10%)
Language : English


Files:

Acts of Violence 2017 1080p WEBRip 6CH AAC x264 - EiE
  • Read Me.txt (0.8 KB)
  • ECLiPSE.txt (14.0 KB)
  • Acts of Violence 2017.srt (74.4 KB)
  • Acts of Violence 2017.mp4 (1.5 GB)

There are currently no comments. Feel free to leave one :)

Code:

  • udp://tracker.coppersurfer.tk:80/announce
  • udp://9.rarbg.me:2770/announce
  • udp://9.rarbg.to:2720/announce
  • udp://eddie4.nl:6969/announce
  • udp://p4p.arenabg.com:1337/announce
  • udp://shadowshq.yi.org:6969/announce
  • udp://thetracker.org:80/announce
  • udp://tracker.grepler.com:6969/announce
  • udp://tracker.internetwarriors.net:1337/announce
  • udp://tracker.opentrackr.org:1337/announce
  • udp://tracker.pirateparty.gr:6969/announce
  • udp://tracker.torrent.eu.org:451/announce
  • udp://tracker.vanitycore.co:6969/announce
  • udp://tracker.zer0day.to:1337/announce