1921 2018 Hindi Pre-DVDRip x264 AAC { TaRa }

  • Category Movies
  • Type Bollywood
  • Language Hindi
  • Total size 697.8 MB
  • Uploaded By SkTara
  • Downloads 2875
  • Last checked 5 days ago
  • Date uploaded 1 week ago
  • Seeders 156
  • Leechers 50

1921

ThrillerHorror

When Ayush arrives in England to learn music, he is shocked and scared when the manor he is living in becomes haunted by spirits. To exorcise them, he seeks the help of Rose, a woman who can see and speak with them.

Infohash : 1C72F3D7B3BE63ACBEED9BCCC5508D36B990C6BB


1921 2018 Hindi Pre-DVDRip x264 AAC [ HDSector.to ] { TaRa }.mkv


===================================================================
General
Complete name : 1921 2018 Hindi Pre-DVDRip x264 AAC [ HDSector.to ] { TaRa }.mkv
Format : Matroska
Format version : Version 4 / Version 2
File size : 698 MiB
Duration : 2 h 14 min
Overall bit rate : 723 kb/s
===================================================================
Video
ID : 1
Format : AVC
Format/Info : Advanced Video Codec
Format profile : [email protected]
Format settings, CABAC : Yes
Format settings, ReFrames : 4 frames
Codec ID : V_MPEG4/ISO/AVC
Duration : 2 h 14 min
Bit rate : 594 kb/s
Width : 720 pixels
Height : 320 pixels
Display aspect ratio : 2.25:1
Frame rate mode : Constant
Frame rate : 30.000 FPS
Color space : YUV
Chroma subsampling : 4:2:0
Bit depth : 8 bits
Scan type : Progressive
Bits/(Pixel*Frame) : 0.086
Stream size : 572 MiB (82%)
Title : HDSector.to
Writing library : x264 core 112
Language : Hindi
Default : Yes
Forced : No
===================================================================
Audio
ID : 2
Format : AAC
Format/Info : Advanced Audio Codec
Format profile : LC
Codec ID : A_AAC
Duration : 2 h 14 min
Bit rate : 128 kb/s
Channel(s) : 2 channels
Channel positions : Front: L R
Sampling rate : 44.1 kHz
Frame rate : 43.066 FPS (1024 spf)
Compression mode : Lossy
Stream size : 123 MiB (18%)
Title : HDSector.to
Language : Hindi
Default : Yes
Forced : No
===================================================================


























Files:

1921 2018 Hindi Pre-DVDRip x264 AAC { TaRa }
  • www.hdsector.to.txt (0.8 KB)
  • www.hdsector.to.nfo (6.5 KB)
  • 1921-2018-Hindi-Movie-Full-Mp3-Album.jpg (53.3 KB)
  • a720dbc49681f06640befbd2202176f4.jpg (145.0 KB)
  • 1921 2018 Hindi Pre-DVDRip x264 AAC { TaRa }.mkv (697.6 MB)

Comments

Code:

  • http://ipv4.tracker.harry.lu/announce
  • http://ipv4.tracker.harry.lu:80/announce
  • http://tracker.electro-torrent.pl/announce
  • http://tracker.electro-torrent.pl:80/announce
  • http://retracker.mgts.by:80/announce
  • http://pt.lax.mx:80/announce
  • http://tracker.torrentyorg.pl:80/announce
  • http://163.172.180.68/announce
  • http://82.209.230.66/announce
  • http://107.174.238.55:80/announce
  • udp://tracker.opentrackr.org:1337/announce
  • udp://tracker.openbittorrent.com:80/announce
  • udp://tracker.coppersurfer.tk:6969/announce
  • udp://tracker.coppersurfer.tk:80/announce
  • udp://tracker.coppersurfer.tk:6969